Login
Username:
Password:
[Signup]
[Recover Account]


Browse Torrents

Poll


You must be logged in to view polls



Latest Torrents
Cockpit (2017) UNC...
- [Size: 825.60 MB]

[Hot] Tabe Tai Hok...
- [Size: 1,013.81 MB]

Samar (2013) 720p ...
- [Size: 833.59 MB]

K.G.F Chapter 1 (2...
- [Size: 929.82 MB]

Kala Shah Kala (20...
- [Size: 1.02 GB]


Torrent Details For "Can.You.Forgive.Me.2019.HDRip.XviD.AC3.LLG"

Can.You.Forgive.Me.2019.HDRip.XviD.AC3.LLG

Download this torrent | Magnet Download
Health:
Seeds: 12
Leechers: 7
Completed: 42 
Last Checked: 12-02-2019 06:39:30
External Torrent
Update Stats



Images Host

Poster
No poster


iMDB
Title: Can You Ever Forgive Me?
Year: 2018
Runtime: 106 minutes
Votes: 3844
Rating: 7.6/10
Language: English
Director: Marielle Heller
Writing By: Nicole Holofcener,Jeff Whitty,
Produced By: Bob Balaban,Anne Carey,Shani Geva,David Greenbaum,Pamela Hirsch,Amy Nauiokas,Jawal Nga,David Yarnell,
Music: Nate Heller
Cast:
Melissa McCarthy as Lee Israel
Richard E. Grant as Jack Hock
Dolly Wells as Anna
Ben Falcone as Alan Schmidt
Gregory Korostishevsky as Andre
Jane Curtin as Marjorie
Stephen Spinella as Paul
Christian Navarro as Kurt
Pun Bandhu as Agent Doyle
Erik LaRay Harvey as Agent Solonas
Trailers:
Official Trailer


Watch-Free-HD     Download

Details
Name:Can.You.Forgive.Me.2019.HDRip.XviD.AC3.LLG
Description:

Quote:



******************************Thumbnail:**********************

 

******************************Screenshots:********************

 Screenshot 1

 Screenshot 2

 Screenshot 3

 Screenshot 4

 Screenshot 5

 Screenshot 6

 Screenshot 7

 Screenshot 8

 Screenshot 9

 Screenshot 0


******************************************************

Can.You.Forgive.Me.2019.HDRip.XviD.AC3.LLG.mp4
Format                                   : MPEG-4
Format profile                           : Base Media
Codec ID                                 : isom (isom/iso2/avc1/mp41)
File size                                : 1.19 GiB
Duration                                 : 1 h 46 min
Overall bit rate mode                    : Variable
Overall bit rate                         : 1 595 kb/s

Video
ID                                       : 1
Format                                   : AVC
Format/Info                              : Advanced Video Codec
Format profile                           : [email protected]
Format settings                          : CABAC / 1 Ref Frames
Format settings, CABAC                   : Yes
Format settings, RefFrames               : 1 frame
Codec ID                                 : avc1
Codec ID/Info                            : Advanced Video Coding
Duration                                 : 1 h 46 min
Bit rate mode                            : Variable
Bit rate                                 : 1 208 kb/s
Maximum bit rate                         : 3 600 kb/s
Width                                    : 720 pixels
Height                                   : 304 pixels
Display aspect ratio                     : 2.35:1
Frame rate mode                          : Constant
Frame rate                               : 23.976 (23976/1000) FPS
Color space                              : YUV
Chroma subsampling                       : 4:2:0
Bit depth                                : 8 bits
Scan type                                : Progressive
Bits/(Pixel*Frame)                       : 0.230
Stream size                              : 919 MiB (76%)


Audio
ID                                       : 2
Format                                   : AC-3
Format/Info                              : Audio Coding 3
Commercial name                          : Dolby Digital
Codec ID                                 : ac-3
Duration                                 : 1 h 46 min
Bit rate mode                            : Constant
Bit rate                                 : 384 kb/s
Channel(s)                               : 6 channels
Channel layout                           : L R C LFE Ls Rs
Sampling rate                            : 48.0 kHz
Frame rate                               : 31.250 FPS (1536 SPF)
Bit depth                                : 16 bits
Compression mode                         : Lossy
Stream size                              : 292 MiB (24%)
Title                                    : Surround
Language                                 : English
Service kind                             : Complete Main
Default                                  : Yes
Alternate group                          : 1
Menus                                    : 3

Menu #1
ID                                       : 3
Codec ID                                 : text
Duration                                 : 1 h 46 min
Language                                 : English


********************************************************


Category:Movies > HDRips
Lang:English  English
Total Size:1.20 GB
Info Hash:0f30d9122153ecd2b4e562a0ada0d57bc1bbf1c5
Added By:LifeLongg
Date Added:11-02-2019 15:42:33
Downloads:18

Ratings:Not Yet Rated (Log in to rate it)


Tracker:
udp://tracker.openbittorrent.com:80/announce


File List: 


Comments

No comments still posted

Top
Copyright 2018 DownloadHD -|- Page Generated In 0.772607 secs.
-|- RSS Feed -|- Feed Info