Login
Username:
Password:
[Signup]
[Recover Account]


Browse Torrents

Poll


You must be logged in to view polls



Latest Torrents
Cockpit (2017) UNC...
- [Size: 825.60 MB]

[Hot] Tabe Tai Hok...
- [Size: 1,013.81 MB]

Samar (2013) 720p ...
- [Size: 833.59 MB]

K.G.F Chapter 1 (2...
- [Size: 929.82 MB]

Kala Shah Kala (20...
- [Size: 1.02 GB]


Torrent Details For "Prospect.2019.HDRip.XviD.AC3.LLG"

Prospect.2019.HDRip.XviD.AC3.LLG

Download this torrent | Magnet Download
Health:
Seeds: 12
Leechers: 1
Completed: 93 
Last Checked: 13-02-2019 19:33:19
External Torrent
Update Stats



Images Host

Poster
No poster


iMDB
Title: Prospect
Year: 2018
Runtime: 98 minutes
Votes: 612
Rating: 6.9/10
Language: English
Tagline: No One Survives Alone
Director: Christopher Caldwell
Zeek Earl
Writing By: Christopher Caldwell,Zeek Earl,
Produced By: Dan Balgoyen,Tracey Bing,Brice Budke,Jason Cloth,Chris Conover,Garrick Dion,Aaron L. Gilbert,Brenda Gilbert,Scott Glassgold,Steven Laing,Matthias Mellinghaus,Andrew Miano,Anjay Nagpal,Andria Spring,Paul Tennyson,Steven Thibault,Stan Thomas,Chris Weitz,Dale Wells,
Music: Daniel L.K. Caldwell
Cast:
Sophie Thatcher as Cee
Jay Duplass as Damon
Pedro Pascal as Ezra
Luke Pitzrick as Number Two
Arthur Deranleau as Fahr
Andre Royo as Oruf
Alex McCauley as Bahr
Doug Dawson as Heshir
Krista Johnson as Gali
Brian Gunter as Mesur
Trailers:
PROSPECT Official Trailer
SXSW Teaser


Watch-Free-HD     Download

Details
Name:Prospect.2019.HDRip.XviD.AC3.LLG
Description:

Quote:



******************************Thumbnail:**********************

 

******************************Screenshots:********************

 Screenshot 1

 Screenshot 2

 Screenshot 3

 Screenshot 4

 Screenshot 5

 Screenshot 6

 Screenshot 7

 Screenshot 8

 Screenshot 9

 Screenshot 0


******************************************************

Prospect.2019.HDRip.XviD.AC3.LLG.mp4
Format                                   : MPEG-4
Format profile                           : Base Media
Codec ID                                 : isom (isom/iso2/avc1/mp41)
File size                                : 1.11 GiB
Duration                                 : 1 h 39 min
Overall bit rate mode                    : Variable
Overall bit rate                         : 1 597 kb/s


Video
ID                                       : 1
Format                                   : AVC
Format/Info                              : Advanced Video Codec
Format profile                           : [email protected]
Format settings                          : CABAC / 1 Ref Frames
Format settings, CABAC                   : Yes
Format settings, RefFrames               : 1 frame
Codec ID                                 : avc1
Codec ID/Info                            : Advanced Video Coding
Duration                                 : 1 h 39 min
Bit rate mode                            : Variable
Bit rate                                 : 1 209 kb/s
Maximum bit rate                         : 3 600 kb/s
Width                                    : 720 pixels
Height                                   : 384 pixels
Display aspect ratio                     : 1.85:1
Frame rate mode                          : Constant
Frame rate                               : 24.000 FPS
Color space                              : YUV
Chroma subsampling                       : 4:2:0
Bit depth                                : 8 bits
Scan type                                : Progressive
Bits/(Pixel*Frame)                       : 0.182
Stream size                              : 863 MiB (76%)


Audio
ID                                       : 2
Format                                   : AC-3
Format/Info                              : Audio Coding 3
Commercial name                          : Dolby Digital
Codec ID                                 : ac-3
Duration                                 : 1 h 39 min
Bit rate mode                            : Constant
Bit rate                                 : 384 kb/s
Channel(s)                               : 6 channels
Channel layout                           : L R C LFE Ls Rs
Sampling rate                            : 48.0 kHz
Frame rate                               : 31.250 FPS (1536 SPF)
Bit depth                                : 16 bits
Compression mode                         : Lossy
Stream size                              : 274 MiB (24%)
Title                                    : Surround
Language                                 : English
Service kind                             : Complete Main
Default                                  : Yes
Alternate group                          : 1



********************************************************


Category:Movies > HDRips
Lang:English  English
Total Size:1.12 GB
Info Hash:5cf2f1d98738057b496e6b9e93a9b3b2094c218b
Added By:LifeLongg
Date Added:11-02-2019 15:23:23
Downloads:19

Ratings:Not Yet Rated (Log in to rate it)


Tracker:
udp://tracker.openbittorrent.com:80/announce


File List: 


Comments

No comments still posted

Top
Copyright 2018 DownloadHD -|- Page Generated In 0.850980 secs.
-|- RSS Feed -|- Feed Info